#TITLE:Strangeprogram;
#SUBTITLE:[Long];
#ARTIST:DJ Sharpnel;
#TITLETRANSLIT:;
#SUBTITLETRANSLIT:;
#ARTISTTRANSLIT:;
#CREDIT:s0ulst0n3;
#BANNER:Strangeprogram-banner.png;
#BACKGROUND:strangeprogram-bg.png;
#LYRICSPATH:;
#CDTITLE:cdtitle.jpg;
#MUSIC:11 STRANGEPROGRAM.mp3;
#OFFSET:0.770;
#SAMPLESTART:61.749;
#SAMPLELENGTH:11.980;
#SELECTABLE:YES;
#BPMS:0.000=215.000,736.000=644.996,784.000=1290.005,880.000=215.001;
#STOPS:;
#BGCHANGES:;
// cache tags:
#FIRSTBEAT:52.000;
#LASTBEAT:924.000;
#SONGFILENAME:Songs/nhac/+Strangeprogram[Long] {s0ulst0n3}/Strangeprogram.sm;
#HASMUSIC:1;
#HASBANNER:1;
#MUSICLENGTH:225.201;
// end cache tags

//---------------dance-single - Very hard.----------------
#NOTES:
     dance-single:
     Very hard.:
     Challenge:
     15:
     1.000,1.000,1.000,0.093,1.000,2340.000,520.000,21.000,0.000,13.000:

0000
0000
0000
0000
,
0000
0000
0000
0000
,
0000
0000
0000
0000
,
0000
0000
0000
0000
,
0000
0000
0000
0000
,
0000
0000
0000
0000
,
0000
0000
0000
0000
,
0000
0000
0000
0000
,
0000
0000
0000
0000
,
0000
0000
0000
0000
,
0000
0000
0000
0000
,
0000
0000
0000
0000
,
0000
0000
0000
0000
,
0001
0000
1001
0001
0000
0001
1001
0000
,
0100
0000
0110
0010
0000
0010
0110
0000
,
0001
0000
0011
0001
0000
0001
0011
0000
,
1000
0000
1100
1000
0000
1000
1100
0000
,
0100
0000
0101
0100
0000
0100
0101
0000
,
0010
0000
1010
0010
0000
0010
1010
0000
,
0001
0000
0001
1001
0000
1000
1001
0000
,
1001
0100
1001
0100
1001
0100
1001
0100
,
1000
0100
0010
0100
1010
0100
0010
0100
0010
0100
1000
0010
1001
0000
0000
0000
,
1000
0100
0010
0001
1100
0010
0100
1000
0100
1000
0100
0010
1001
0000
0000
0000
,
0001
0010
0001
1000
0110
0001
0010
0100
1000
0100
0010
0001
1100
0000
0000
0000
,
1000
0100
1000
0100
1010
0001
0010
0001
0010
0100
1000
0100
0011
0000
0000
0000
,
0100
0010
1000
0010
1100
0001
0010
0100
0010
0100
1000
0010
1001
0000
0000
0000
,
0010
1000
0010
0001
1010
0100
1000
0010
0100
0001
1000
0100
1001
0000
0000
0000
,
1000
0100
0001
0100
1001
0100
0010
0001
0010
0100
1000
0010
1200
0000
0000
0300
,
1000
1000
0100
0100
1000
1000
0100
0100
,
1001
0000
0000
0000
,
0000
0000
0000
0000
,
0000
0000
0000
0000
,
0000
0000
1001
0000
,
1000
0001
1000
0001
0010
1000
0010
1000
0001
0100
0001
0100
0010
0001
0010
0001
,
0100
1000
0100
1000
0001
0100
0001
0100
0000
0010
0001
0010
0100
1000
0100
1000
,
0001
0010
0100
1000
0100
1000
0001
0100
0001
0100
0010
0001
0100
0001
0100
0001
,
0010
0100
1000
0010
1000
0010
0001
0100
0001
0100
0010
1000
0100
0000
0001
0000
,
1001
0100
0010
0100
0010
1000
0100
1000
0100
0010
0001
0010
0001
1000
0100
1000
,
0100
0010
1000
0010
1000
0001
0100
0001
0100
0010
1000
0010
1000
0001
0100
0001
,
0100
1000
0100
1000
0100
0001
0010
0001
0010
0100
1000
0100
0010
0100
1000
0100
,
1001
0000
1100
0100
1100
1000
1100
0100
,
1100
1000
1010
0010
0011
0001
1001
1000
,
1010
0010
0110
0100
0101
0001
1001
1000
,
1100
0100
0101
0001
0011
0010
0110
0100
,
1100
1000
1010
0100
0011
0100
1010
0100
,
0001
0110
1100
0011
0110
0000
0000
0001
,
1001
0000
1000
1100
0000
0010
0110
0000
,
0100
0110
0000
0010
1010
0000
0100
0101
,
0000
0001
0011
0000
0011
2100
0000
3000
,
1000
0100
0001
0010
1000
0100
0001
0010
1000
0100
0001
0010
1000
0100
0001
0010
,
1000
0100
0010
0001
1000
0100
0010
0001
1000
0100
0010
0001
1000
0100
0010
0001
,
1000
0010
0100
0001
1000
0010
0100
0001
1000
0010
0100
0001
1000
0010
0100
0001
,
1000
0100
0010
0001
1000
0100
0010
0001
0110
0000
0011
0000
0110
0000
1100
0000
,
0001
0010
0100
1000
0001
0010
0100
1000
0001
0010
0100
1000
0001
0010
0100
1000
,
0001
0010
1000
0100
0001
0010
1000
0100
0001
0010
1000
0100
0001
0010
1000
0100
,
0001
0010
0100
1000
0001
0010
0100
1000
0001
0010
0100
1000
0001
0010
0100
1000
,
0001
0100
0010
1000
0001
0100
0010
1000
0110
0000
0000
0000
0000
0000
0000
0000
,
1000
0100
0010
0001
0010
1000
0010
0100
1000
0100
0001
0010
1000
0100
0001
0010
,
1000
0100
0010
0001
1000
0100
0010
0001
1000
0100
0001
0010
1000
0100
0001
0010
,
1000
0100
0010
0001
1000
0100
0010
0001
1000
0100
0001
0010
1000
0100
0001
0010
,
0100
1000
0100
0010
0001
0010
1100
0000
0110
0000
0011
0000
0110
0000
1100
0000
,
1000
1000
1000
1000
1000
1000
1000
1000
1000
1000
1000
1000
1000
1000
1000
1000
,
0100
0100
0100
0100
0100
0100
0100
0100
0100
0100
0100
0100
0100
0100
0100
0100
,
0010
0010
0010
0010
0010
0010
0010
0010
0010
0010
0010
0010
0010
0010
0010
0010
,
0001
0001
0001
0001
0001
0001
0001
0001
0001
0000
1100
0000
1100
0000
1010
0000
,
1001
0000
1001
0000
1100
0000
0011
0110
,
0000
0001
0011
0101
1001
0101
0000
0110
,
1100
0000
0101
0000
0110
0000
0011
1100
,
0000
1100
1010
1100
1001
1010
0000
0110
,
1001
0000
0011
0000
0110
0000
1001
1100
,
0000
0011
0110
1100
0000
0110
1001
1100
,
1001
0110
1001
0101
0011
0110
1100
1001
,
0000
1100
1100
0000
0000
1001
0101
1010
,
1100
0000
1001
0000
0101
0000
1001
1001
,
0000
0011
0110
1100
0110
0011
0000
1001
,
0101
0000
1100
0000
1001
0000
0011
0011
,
0000
1010
1100
0011
0101
0110
0000
1100
,
1010
0000
0011
0000
1100
0000
0110
1010
,
0000
0011
0110
1100
0000
0011
1100
0011
,
1100
0101
0110
1001
0101
0011
0000
1001
,
0000
0100
0101
0000
0000
0000
0000
0000
,
0001
0001
0001
0000
1100
0000
0000
0000
1100
0000
0000
0000
0000
0000
0000
0000
,
1000
1000
1001
0000
0000
0000
0011
0000
0000
0000
0000
0000
0000
0000
0100
0100
,
0100
1010
1010
0000
,
0010
0010
0010
0000
0000
0000
1001
0000
0000
0000
1001
0000
0000
0000
0000
0000
,
1000
1000
1000
0000
1100
0000
0000
0000
0011
0000
0000
0000
0000
0000
0000
0000
,
0010
0010
0110
0000
0000
0000
1001
0000
0000
0000
0000
0000
0000
0000
0000
0000
,
1001
0000
1100
0000
0110
1001
0000
1100
,
0000
1100
0000
1100
0000
1100
0000
0000
,
0001
1000
0010
0100
1001
0100
1000
0001
1000
0001
0010
0100
0011
0100
1001
0010
,
0001
0010
1000
0001
0110
0001
0100
0001
0100
0010
0100
0010
0101
0010
1001
0100
,
1000
0100
0010
0100
1001
0010
0001
1000
0010
0100
0010
1000
0101
0010
1001
0100
,
0001
0010
0001
0100
1010
0001
0100
1000
0001
0100
0010
1000
0110
0001
1010
0100
,
1000
0010
0100
0010
1100
0001
1000
0001
0010
1000
0001
0100
1010
0001
1010
0001
,
1000
0001
1000
0100
0011
0100
0010
1000
0100
0010
0001
1000
0110
1000
0011
1000
,
0100
0001
0100
0001
1010
0100
0010
0100
0010
1000
0001
0100
0011
1000
0011
0100
,
0010
1000
0010
1000
0101
0010
0100
0001
0100
0010
0001
0010
0101
0010
1001
0010
,
0001
0010
1000
0001
0110
1000
0100
0010
1000
0010
0100
0001
1010
0001
0110
1000
,
0100
0010
0100
0001
1100
0010
0001
1000
0001
0100
0001
1000
0101
0010
0101
1000
,
0010
1000
0010
1000
0101
0010
0100
1000
0010
0001
0010
0100
0011
1000
0011
1000
,
0001
0010
0100
1000
0101
0010
0100
0010
0001
0010
0100
1000
0101
0010
1001
0010
,
0001
1000
0010
1000
0011
0100
1000
0100
0001
1000
0010
1000
0101
0010
1001
0010
,
0001
1000
0010
1000
0110
0001
1000
0001
0100
0010
1000
0010
1001
0100
1001
0100
,
0001
1000
0010
1000
0110
0001
1000
0001
0010
1000
0001
0010
1001
0010
1100
0000
,
0000
0010
0000
0010
0000
0010
0000
0010
,
1000
0010
1000
0100
1001
0010
0001
1000
0100
1000
0100
0010
0101
1000
0110
1000
,
0001
0100
0001
0010
1001
0100
0010
0100
0001
1000
0010
1000
0101
0010
1001
0010
,
0001
1000
0010
1000
0011
1000
0001
0100
0001
1000
0010
1000
0101
0010
1001
0010
,
0001
1000
0010
1000
0101
0010
1000
0010
0001
0100
0001
1000
0011
0100
1001
0100
,
0001
0100
1000
0010
1001
0100
0010
0100
0001
1000
0010
1000
0101
0010
1001
0010
,
0001
0100
1000
0100
0011
1000
0001
1000
0100
0010
0100
0001
0110
1000
0101
1000
,
0001
0100
1000
0010
0101
1000
0100
1000
0010
0100
1000
0100
1001
0010
1100
0010
,
0100
1000
0010
0001
0110
1000
0001
1000
0010
0100
1000
0010
0101
1000
0011
1000
,
0001
0010
1000
0010
0101
1000
0010
0100
1000
0010
0001
1000
0101
0010
1001
0010
,
0001
1000
0100
1000
0101
1000
0010
0100
0001
0010
0001
1000
0110
1000
0101
1000
,
0100
1000
0001
0010
0101
1000
0010
1000
0001
0100
1000
0010
0101
1000
0110
1000
,
0001
0010
0001
1000
0011
1000
0010
1000
0100
1000
0001
1000
0101
0010
1100
0010
,
0001
0100
0001
0010
0101
1000
0010
0100
0010
0100
0001
1000
0110
0001
1100
0010
,
0100
0001
0010
1000
0101
0010
1000
0100
0001
0010
1000
0010
1001
0010
0101
0000
,
0001
1001
1000
1001
0001
1001
1000
1001
,
0001
1001
1000
1001
0001
1001
1000
1001
,
2002
0100
0010
0100
0010
0100
3013
0000
,
0000
1001
0000
1001
0000
1001
0000
1001
,
0010
0001
1010
0100
0010
0001
1010
0001
0010
0100
1001
0010
0100
1000
0110
0001
,
0100
0010
1001
0100
0001
0100
1010
0001
1000
0100
1010
0100
1000
0001
1100
0010
,
0001
1000
0011
1000
0010
1000
0011
0100
0001
1000
0101
0010
0100
0001
1010
0001
,
0100
0001
1010
0100
0001
0010
1001
0010
0001
0100
1001
0100
1000
0010
0101
1000
,
0100
0001
1100
0001
0100
1000
0011
1000
0001
0010
1001
0010
0100
0010
1100
0010
,
1000
0100
0011
0100
0010
1000
0110
0001
0010
1000
0101
1000
0010
0100
0011
0100
,
0022
2233
3322
0233
,
2302
0000
0110
0000
0110
0000
0000
3003
,
0100
0001
0010
0100
1000
0001
0010
0001
1000
0100
0001
0010
1000
0001
0100
0010
,
0101
0010
0100
0010
0101
1000
0001
0010
1001
0100
0010
0001
1010
0100
0010
1000
,
0101
1000
0001
0010
0101
1000
0010
1000
0011
1000
0001
0010
1100
0001
1000
0010
,
0101
0010
1000
0100
0011
0100
0001
1000
0101
1000
0001
0010
0101
1000
0010
0100
,
0001
0010
0101
1000
0010
1000
0011
1000
0010
0100
1001
0010
0001
1000
0011
0100
,
0001
1000
0101
0010
0001
0100
1010
0100
0001
0010
0101
1000
0100
0010
0101
1000
,
0001
0100
0011
0100
1000
0001
0110
0001
1000
0100
1001
0100
0010
0001
0110
0001
,
1000
0010
1100
0010
0100
0001
0110
0001
1000
0100
1001
0010
0001
0100
1010
0100
,
1001
0000
0000
0000
,
0000
0000
0000
0000
,
0000
0000
0000
0000
,
0000
0000
0000
0000
,
0000
0000
0000
2002
,
3103
0010
1001
0010
0100
1001
0010
0100
,
1001
0000
1001
1001
1001
0000
1001
0000
1000
0000
0010
0000
1000
0000
0010
0000
,
1000
0001
0110
1000
0001
1001
0100
0110
,
0011
0011
0110
0110
1100
0000
0001
0000
0110
0110
0110
0110
0110
0000
1001
0000
,
0010
0001
0011
0100
1000
1100
1000
1100
,
0001
0000
1100
1100
1100
0000
0001
0000
0001
0000
0100
0000
0001
0000
0100
0000
,
1000
0010
0101
0010
0100
1010
0100
1001
,
0110
0110
0110
0000
0110
0000
1000
0000
1000
0000
1000
0000
1001
0000
0000
0000
,
1100
0110
0011
1100
0110
0011
0110
0011
,
0100
0000
1100
1100
1100
0000
1010
0000
1010
0000
0001
0000
0010
0000
0010
0000
,
1001
0110
0011
0110
1100
0011
0110
1100
,
0110
1001
1001
0110
0110
0000
0001
0000
0010
0000
0100
0000
1000
0000
1001
0000
,
0100
0010
1001
0100
0010
1001
0100
1001
,
0110
0000
0011
0011
0011
0000
0011
0000
0001
0000
0010
0000
0001
0000
0010
0000
,
0100
0010
1001
0100
0010
1001
0100
1001
,
1100
1100
1100
0000
1100
0000
1100
0000
1100
0000
1100
0000
0000
0000
0000
0000
,
0011
0001
0011
0101
0001
0011
1001
1000
,
1001
1000
1010
1100
0100
1100
1001
0001
,
1001
0001
0011
0110
0100
1100
1001
0001
,
1001
1000
1100
0110
0010
0011
0110
0100
,
1100
0100
1100
1010
0010
0011
0101
0001
,
0101
0001
0101
0110
0010
0110
1100
1000
,
1010
0010
0110
0101
0001
1001
1100
0100
,
1001
1001
1001
0000
1001
0000
1001
0000
1001
0000
1001
0000
2002
0000
3003
0000
,
0011
0001
0011
0001
0011
0001
0011
0001
,
0011
0001
1001
1000
1100
1000
1100
1000
,
1100
1000
1100
1000
1100
1000
1010
0010
,
1001
1001
1001
0010
0100
0000
0011
0000
0010
0000
0110
0000
1010
0000
0010
0000
,
0110
0010
0110
0010
0110
0010
0110
0010
,
0110
0010
0110
0010
0110
0010
0110
0010
,
0110
0010
0110
0010
0110
0100
0110
0100
,
0110
0100
0110
0100
0110
0100
0110
0000
,
1001
0001
1001
1000
1001
0001
1001
1000
,
1010
0010
1010
0010
1010
1000
1010
0010
,
1010
1000
1100
0100
1100
1000
1100
0100
,
1100
1100
1100
0001
0010
0000
1000
0000
0010
0000
0001
0000
0010
0000
0100
0000
,
1000
0001
1000
0001
1000
0001
1000
0001
1000
0001
1000
0001
1000
0001
1000
0001
,
1000
0001
1000
0001
1000
0001
1000
0001
1000
0001
1000
0001
1000
0001
1000
0001
,
1000
0001
1000
0001
1000
0001
1000
0001
1000
0001
1000
0001
1000
0001
1000
0001
,
1000
0001
1000
0001
1000
0001
1000
0001
1000
0001
1000
0001
1000
0001
1000
0001
,
1000
0010
0100
0001
1000
0010
0100
0001
1000
0010
0100
0001
1000
0010
0100
0001
,
1000
0010
0100
0001
1000
0010
0100
0001
1000
0010
0100
0001
1000
0010
0100
0001
,
1000
0010
0100
0001
2000
3010
0100
0001
1000
0010
0100
0001
1000
0010
0100
0001
,
1000
0010
0100
0001
1000
0010
0100
0001
1000
0010
0100
0001
1000
0010
0100
0001
,
1000
0010
0100
0001
1000
0010
0100
0001
1000
0010
0100
0001
1000
0010
0100
0001
,
1000
0010
0100
0001
1000
0010
0100
0001
1000
0010
0100
0001
1000
0010
0100
0001
,
1000
0010
0100
0001
1000
0010
0100
0001
1000
0010
0100
0001
1000
0010
0100
0001
,
1000
0010
0100
0001
1000
0010
0100
0001
1000
0010
0100
0001
1000
0010
0100
0001
,
1000
0010
0100
0001
1000
0010
0100
0001
2000
3010
0100
0001
1000
0010
0100
0001
,
1000
0010
0100
0001
1000
0010
0100
0001
1000
0010
0100
0001
1000
0010
0100
0001
,
1000
0010
0100
0001
1000
0010
0100
0001
1000
0010
0100
0001
1000
0010
0100
0001
,
1000
0010
0100
0001
1000
0010
0100
0001
1000
0010
0100
0001
1000
0010
0100
0001
,
1000
0100
0010
0001
1000
0100
0010
0001
1000
0100
0010
0001
1000
0100
0010
0001
,
1000
0100
0010
0001
1000
0100
0010
0001
1000
0100
0010
0001
1000
0100
0010
0001
,
1000
0100
0010
0001
1000
0100
0010
0001
1000
0100
0010
0001
1000
0100
0010
0001
,
1000
0100
0010
0001
1000
0100
0010
0001
1000
0100
0010
0001
1000
0100
0010
0001
,
1000
0100
0010
0001
1000
0100
0010
0001
1000
0100
0010
0001
1000
0100
0010
0001
,
1000
0100
0010
0001
1000
0100
0010
0001
1000
0100
0010
0001
1000
0100
0010
0001
,
1000
0100
0010
0001
1000
0100
0010
0001
1000
0100
0010
0001
1000
0100
0010
0001
,
1000
0100
0010
0001
1000
0100
0010
0001
1000
0100
0010
0001
1000
0100
0010
0001
,
1000
0100
0010
0001
1000
0100
0010
0001
1000
0100
0010
0001
1000
0100
0010
0001
,
1000
0100
0010
0001
1000
0100
0010
0001
1000
0100
0010
0001
1000
0100
0010
0001
,
1000
0100
0010
0001
1000
0100
0010
0001
1000
0100
0010
0001
1000
0100
0010
0001
,
1000
0100
0010
0001
1000
0100
0010
0001
1000
0100
0010
0001
1000
0100
0010
0001
,
1000
0100
0010
0001
1000
0100
0010
0001
1000
0100
0010
0001
1000
0100
0010
0001
,
1000
0100
0010
0001
1000
0100
0010
0001
0001
0010
0100
1000
0001
0010
0100
1000
,
0001
0010
0100
1000
0001
0010
0100
1000
0001
0010
0100
1000
0001
0010
0100
1000
,
0001
0010
0100
1000
0001
0010
0100
1000
0001
0010
0100
1000
0001
0010
0100
1000
,
0001
0010
0100
1000
0001
0010
0100
1000
0001
0010
0100
1000
0001
0010
0100
1000
,
0001
0010
0100
1000
0001
0010
0100
1000
0001
0010
0100
1000
0001
0010
0100
1000
,
0001
0010
0100
1000
0001
0010
0100
1000
0001
0010
0100
1000
0001
0010
0100
1000
,
0001
0010
0100
1000
0001
0010
0100
1000
0001
0010
0100
1000
0001
0010
0100
1000
,
0001
0010
0100
1000
0001
0010
0100
1000
0001
0010
0100
1000
0001
0010
0100
1000
,
0001
0010
0100
1000
0001
0010
0100
1000
0001
0010
0100
1000
0001
0010
0100
1000
,
0001
0010
0100
1000
0001
0010
0100
1000
0001
0010
0100
1000
0001
0010
0100
1000
,
0001
0010
0100
1000
0001
0010
0100
1000
0001
0010
0100
1000
0001
0010
0100
1000
,
2002
0000
0000
0000
,
0000
0000
0000
0000
,
0000
0000
0000
0000
,
0000
0000
0000
0000
,
0000
0000
0000
0000
,
0000
0000
0000
0000
,
0000
0000
0000
0000
,
0000
0000
0000
0000
,
0000
0000
0000
0000
,
0000
0000
0000
0000
,
0000
0000
0000
0000
,
3003
0000
0000
0000
;
